999
DXF file: C:\Users\ed_mduarte\Desktop\Documentos website\Acessório de banho\Edwardian\12412OD\12412od.dxf
999
Pro/ENGINEER 2023494 by Parametric Technology Corporation
  0
SECTION
  2
HEADER
  9
$ACADVER
  1
AC1032
  9
$DWGCODEPAGE
  3
ANSI_1252
  9
$EXTMAX
 10
841.0
 20
594.0
 30
0.0
  9
$EXTMIN
 10
0.0
 20
0.0
 30
0.0
  9
$LIMMIN
 10
0.0
 20
0.0
  9
$LIMMAX
 10
841.0
 20
594.0
  9
$VIEWCTR
 10
420.5
 20
297.0
  9
$VIEWSIZE
 40
594.0
  9
$CLAYER
  8
0
  9
$LTSCALE
 40
46.255
  9
$CELTYPE
  6
BYLAYER
  9
$DIMSCALE
 40
1.0
  9
$DIMASZ
 40
9.0
  9
$DIMEXO
 40
1.0
  9
$DIMDLI
 40
31.958
  9
$DIMEXE
 40
1.5
  9
$DIMCEN
 40
7.569
  9
$DIMLFAC
 40
1.0
  9
$DIMBLK
  1
_FILLED
  9
$DIMALT
 70
0
  9
$DIMALTF
 40
0.0393700787
  9
$DIMTXT
 40
2.5
  9
$DIMTOL
 70
1
  9
$DIMLIM
 70
0
  9
$DIMTFAC
 40
1.0
  9
$DIMTP
 40
0.01
  9
$DIMTM
 40
0.01
  9
$DIMGAP
 40
0.625
  9
$DIMDSEP
 70
44
  9
$AUNITS
 70
0
  9
$PDMODE
 70
3
  9
$PDSIZE
 40
4.0
  9
$HANDSEED
  5
2C9
  9
$TILEMODE
 70
1
  9
$MEASUREMENT
 70
1
  9
$INSUNITS
 70
4
  0
ENDSEC
  0
SECTION
  2
CLASSES
  0
CLASS
  1
ACDBDICTIONARYWDFLT
  2
AcDbDictionaryWithDefault
  3
AutoCAD 2000
 90
0
 91
1
280
0
281
0
  0
CLASS
  1
ACDBPLACEHOLDER
  2
AcDbPlaceHolder
  3
AutoCAD 2000
 90
0
 91
1
280
0
281
0
  0
CLASS
  1
LAYOUT
  2
AcDbLayout
  3
AutoCAD 2000
 90
0
 91
0
280
0
281
0
  0
ENDSEC
  0
SECTION
  2
TABLES
  0
TABLE
  2
VPORT
  5
8
100
AcDbSymbolTable
 70
2
  0
VPORT
  5
1F4
100
AcDbSymbolTableRecord
100
AcDbViewportTableRecord
  2
*ACTIVE
 70
0
 10
0.0
 20
0.0
 11
1.0
 21
1.0
 12
420.5
 22
297.0
 13
0.0
 23
0.0
 14
1.0
 24
1.0
 15
0.0
 25
0.0
 16
0.0
 26
0.0
 36
1.0
 17
0.0
 27
0.0
 37
0.0
 40
594.0
 41
1.4158249158
 42
50.0
 43
0.0
 44
0.0
 50
0.0
 51
0.0
 71
0
 72
100
 73
1
 74
1
 75
0
 76
0
 77
0
 78
0
  0
ENDTAB
  0
TABLE
  2
LTYPE
  5
5
100
AcDbSymbolTable
 70
6
  0
LTYPE
  5
14
100
AcDbSymbolTableRecord
100
AcDbLinetypeTableRecord
  2
BYBLOCK
 70
0
  3

 72
65
 73
0
 40
0.0
  0
LTYPE
  5
15
100
AcDbSymbolTableRecord
100
AcDbLinetypeTableRecord
  2
BYLAYER
 70
0
  3

 72
65
 73
0
 40
0.0
  0
LTYPE
  5
16
100
AcDbSymbolTableRecord
100
AcDbLinetypeTableRecord
  2
CONTINUOUS
 70
64
  3
Solid line
 72
65
 73
0
 40
0.0
  0
LTYPE
  5
1F5
100
AcDbSymbolTableRecord
100
AcDbLinetypeTableRecord
  2
CENTER
 70
64
  3
____ _ ____ _ ____ _ ____ _ ____ _ ____ _ ____
 72
65
 73
4
 40
0.6
 49
0.375
 74
0
 49
-0.075
 74
0
 49
0.075
 74
0
 49
-0.075
 74
0
  0
LTYPE
  5
1F6
100
AcDbSymbolTableRecord
100
AcDbLinetypeTableRecord
  2
HIDDEN
 70
64
  3
- - - - - - - - - - - - - - - - - - - -
 72
65
 73
2
 40
0.2
 49
0.1
 74
0
 49
-0.1
 74
0
  0
LTYPE
  5
1F7
100
AcDbSymbolTableRecord
100
AcDbLinetypeTableRecord
  2
PHANTOM
 70
64
  3
_____ _ _ _____ _ _ _____ _ _ _____
 72
65
 73
6
 40
0.8
 49
0.45
 74
0
 49
-0.05
 74
0
 49
0.1
 74
0
 49
-0.05
 74
0
 49
0.1
 74
0
 49
-0.05
 74
0
  0
LTYPE
  5
1F8
100
AcDbSymbolTableRecord
100
AcDbLinetypeTableRecord
  2
DOT
 70
64
  3
. . . . . . . . . . . . . . . . . . . .
 72
65
 73
2
 40
0.2
 49
0.1
 74
0
 49
-0.1
 74
0
  0
LTYPE
  5
1F9
100
AcDbSymbolTableRecord
100
AcDbLinetypeTableRecord
  2
DASHED
 70
64
  3
- - - - - - - - - - - - - - - - - - - -
 72
65
 73
2
 40
0.2
 49
0.1
 74
0
 49
-0.1
 74
0
  0
ENDTAB
  0
TABLE
  2
LAYER
  5
2
100
AcDbSymbolTable
 70
36
  0
LAYER
  5
10
100
AcDbSymbolTableRecord
100
AcDbLayerTableRecord
  2
0
 70
0
 62
7
  6
CONTINUOUS
370
-3
390
F
  0
LAYER
  5
1FA
100
AcDbSymbolTableRecord
100
AcDbLayerTableRecord
  2
DEFAULT_1
 70
0
 62
7
  6
CENTER
370
-3
390
F
  0
LAYER
  5
1FB
100
AcDbSymbolTableRecord
100
AcDbLayerTableRecord
  2
DEFAULT_2
 70
0
 62
8
  6
HIDDEN
370
-3
390
F
  0
LAYER
  5
1FC
100
AcDbSymbolTableRecord
100
AcDbLayerTableRecord
  2
DEFAULT_3
 70
0
 62
7
  6
PHANTOM
370
-3
390
F
  0
LAYER
  5
1FD
100
AcDbSymbolTableRecord
100
AcDbLayerTableRecord
  2
1
 70
0
 62
7
  6
CONTINUOUS
370
-3
390
F
  0
LAYER
  5
1FE
100
AcDbSymbolTableRecord
100
AcDbLayerTableRecord
  2
10
 70
0
 62
7
  6
CONTINUOUS
370
-3
390
F
  0
LAYER
  5
1FF
100
AcDbSymbolTableRecord
100
AcDbLayerTableRecord
  2
11
 70
0
 62
7
  6
CONTINUOUS
370
-3
390
F
  0
LAYER
  5
200
100
AcDbSymbolTableRecord
100
AcDbLayerTableRecord
  2
12
 70
0
 62
7
  6
CONTINUOUS
370
-3
390
F
  0
LAYER
  5
201
100
AcDbSymbolTableRecord
100
AcDbLayerTableRecord
  2
13
 70
0
 62
7
  6
CONTINUOUS
370
-3
390
F
  0
LAYER
  5
202
100
AcDbSymbolTableRecord
100
AcDbLayerTableRecord
  2
14
 70
0
 62
7
  6
CONTINUOUS
370
-3
390
F
  0
LAYER
  5
203
100
AcDbSymbolTableRecord
100
AcDbLayerTableRecord
  2
15
 70
0
 62
7
  6
CONTINUOUS
370
-3
390
F
  0
LAYER
  5
204
100
AcDbSymbolTableRecord
100
AcDbLayerTableRecord
  2
16
 70
0
 62
7
  6
CONTINUOUS
370
-3
390
F
  0
LAYER
  5
205
100
AcDbSymbolTableRecord
100
AcDbLayerTableRecord
  2
17
 70
0
 62
7
  6
CONTINUOUS
370
-3
390
F
  0
LAYER
  5
206
100
AcDbSymbolTableRecord
100
AcDbLayerTableRecord
  2
18
 70
0
 62
7
  6
CONTINUOUS
370
-3
390
F
  0
LAYER
  5
207
100
AcDbSymbolTableRecord
100
AcDbLayerTableRecord
  2
19
 70
0
 62
7
  6
CONTINUOUS
370
-3
390
F
  0
LAYER
  5
208
100
AcDbSymbolTableRecord
100
AcDbLayerTableRecord
  2
1_ALL_PLANES
 70
0
 62
7
  6
CONTINUOUS
370
-3
390
F
  0
LAYER
  5
209
100
AcDbSymbolTableRecord
100
AcDbLayerTableRecord
  2
1__DEF_ASM_PLN
 70
0
 62
7
  6
CONTINUOUS
370
-3
390
F
  0
LAYER
  5
20A
100
AcDbSymbolTableRecord
100
AcDbLayerTableRecord
  2
1__DEF_PLANES
 70
0
 62
7
  6
CONTINUOUS
370
-3
390
F
  0
LAYER
  5
20B
100
AcDbSymbolTableRecord
100
AcDbLayerTableRecord
  2
2
 70
0
 62
7
  6
CONTINUOUS
370
-3
390
F
  0
LAYER
  5
20C
100
AcDbSymbolTableRecord
100
AcDbLayerTableRecord
  2
20
 70
0
 62
7
  6
CONTINUOUS
370
-3
390
F
  0
LAYER
  5
20D
100
AcDbSymbolTableRecord
100
AcDbLayerTableRecord
  2
21
 70
0
 62
7
  6
CONTINUOUS
370
-3
390
F
  0
LAYER
  5
20E
100
AcDbSymbolTableRecord
100
AcDbLayerTableRecord
  2
22
 70
0
 62
7
  6
CONTINUOUS
370
-3
390
F
  0
LAYER
  5
20F
100
AcDbSymbolTableRecord
100
AcDbLayerTableRecord
  2
23
 70
0
 62
7
  6
CONTINUOUS
370
-3
390
F
  0
LAYER
  5
210
100
AcDbSymbolTableRecord
100
AcDbLayerTableRecord
  2
24
 70
0
 62
7
  6
CONTINUOUS
370
-3
390
F
  0
LAYER
  5
211
100
AcDbSymbolTableRecord
100
AcDbLayerTableRecord
  2
25
 70
0
 62
7
  6
CONTINUOUS
370
-3
390
F
  0
LAYER
  5
212
100
AcDbSymbolTableRecord
100
AcDbLayerTableRecord
  2
26
 70
0
 62
7
  6
CONTINUOUS
370
-3
390
F
  0
LAYER
  5
213
100
AcDbSymbolTableRecord
100
AcDbLayerTableRecord
  2
27
 70
0
 62
7
  6
CONTINUOUS
370
-3
390
F
  0
LAYER
  5
214
100
AcDbSymbolTableRecord
100
AcDbLayerTableRecord
  2
28
 70
0
 62
7
  6
CONTINUOUS
370
-3
390
F
  0
LAYER
  5
215
100
AcDbSymbolTableRecord
100
AcDbLayerTableRecord
  2
29
 70
0
 62
7
  6
CONTINUOUS
370
-3
390
F
  0
LAYER
  5
216
100
AcDbSymbolTableRecord
100
AcDbLayerTableRecord
  2
2_ALL_CSYS
 70
0
 62
7
  6
CONTINUOUS
370
-3
390
F
  0
LAYER
  5
217
100
AcDbSymbolTableRecord
100
AcDbLayerTableRecord
  2
2__DEF_ASM_CSYS
 70
0
 62
7
  6
CONTINUOUS
370
-3
390
F
  0
LAYER
  5
218
100
AcDbSymbolTableRecord
100
AcDbLayerTableRecord
  2
2__DEF_CSYS
 70
0
 62
7
  6
CONTINUOUS
370
-3
390
F
  0
LAYER
  5
219
100
AcDbSymbolTableRecord
100
AcDbLayerTableRecord
  2
3
 70
0
 62
7
  6
CONTINUOUS
370
-3
390
F
  0
LAYER
  5
21A
100
AcDbSymbolTableRecord
100
AcDbLayerTableRecord
  2
30
 70
0
 62
7
  6
CONTINUOUS
370
-3
390
F
  0
LAYER
  5
21B
100
AcDbSymbolTableRecord
100
AcDbLayerTableRecord
  2
31
 70
0
 62
7
  6
CONTINUOUS
370
-3
390
F
  0
LAYER
  5
21C
100
AcDbSymbolTableRecord
100
AcDbLayerTableRecord
  2
32
 70
0
 62
7
  6
CONTINUOUS
370
-3
390
F
  0
LAYER
  5
21D
100
AcDbSymbolTableRecord
100
AcDbLayerTableRecord
  2
3_ALL_AXES
 70
0
 62
7
  6
CONTINUOUS
370
-3
390
F
  0
LAYER
  5
21E
100
AcDbSymbolTableRecord
100
AcDbLayerTableRecord
  2
3_ALL_CURVES
 70
0
 62
7
  6
CONTINUOUS
370
-3
390
F
  0
LAYER
  5
21F
100
AcDbSymbolTableRecord
100
AcDbLayerTableRecord
  2
4
 70
0
 62
7
  6
CONTINUOUS
370
-3
390
F
  0
LAYER
  5
220
100
AcDbSymbolTableRecord
100
AcDbLayerTableRecord
  2
4_ALL_AXES
 70
0
 62
7
  6
CONTINUOUS
370
-3
390
F
  0
LAYER
  5
221
100
AcDbSymbolTableRecord
100
AcDbLayerTableRecord
  2
4_ALL_POINTS
 70
0
 62
7
  6
CONTINUOUS
370
-3
390
F
  0
LAYER
  5
222
100
AcDbSymbolTableRecord
100
AcDbLayerTableRecord
  2
4_DETAIL
 70
0
 62
7
  6
CONTINUOUS
370
-3
390
F
  0
LAYER
  5
223
100
AcDbSymbolTableRecord
100
AcDbLayerTableRecord
  2
4_DIMS
 70
0
 62
7
  6
CONTINUOUS
370
-3
390
F
  0
LAYER
  5
224
100
AcDbSymbolTableRecord
100
AcDbLayerTableRecord
  2
4_DIMS_DRV
 70
0
 62
7
  6
CONTINUOUS
370
-3
390
F
  0
LAYER
  5
225
100
AcDbSymbolTableRecord
100
AcDbLayerTableRecord
  2
5
 70
0
 62
7
  6
CONTINUOUS
370
-3
390
F
  0
LAYER
  5
226
100
AcDbSymbolTableRecord
100
AcDbLayerTableRecord
  2
5_ALL_CURVES
 70
0
 62
7
  6
CONTINUOUS
370
-3
390
F
  0
LAYER
  5
227
100
AcDbSymbolTableRecord
100
AcDbLayerTableRecord
  2
5_ALL_POINTS
 70
0
 62
7
  6
CONTINUOUS
370
-3
390
F
  0
LAYER
  5
228
100
AcDbSymbolTableRecord
100
AcDbLayerTableRecord
  2
6
 70
0
 62
7
  6
CONTINUOUS
370
-3
390
F
  0
LAYER
  5
229
100
AcDbSymbolTableRecord
100
AcDbLayerTableRecord
  2
6_ALL_SURFS
 70
0
 62
7
  6
CONTINUOUS
370
-3
390
F
  0
LAYER
  5
22A
100
AcDbSymbolTableRecord
100
AcDbLayerTableRecord
  2
7
 70
0
 62
7
  6
CONTINUOUS
370
-3
390
F
  0
LAYER
  5
22B
100
AcDbSymbolTableRecord
100
AcDbLayerTableRecord
  2
7_ALL_FEATURES
 70
0
 62
7
  6
CONTINUOUS
370
-3
390
F
  0
LAYER
  5
22C
100
AcDbSymbolTableRecord
100
AcDbLayerTableRecord
  2
8
 70
0
 62
7
  6
CONTINUOUS
370
-3
390
F
  0
LAYER
  5
22D
100
AcDbSymbolTableRecord
100
AcDbLayerTableRecord
  2
9
 70
0
 62
7
  6
CONTINUOUS
370
-3
390
F
  0
LAYER
  5
22E
100
AcDbSymbolTableRecord
100
AcDbLayerTableRecord
  2
DIM
 70
0
 62
7
  6
CONTINUOUS
370
-3
390
F
  0
LAYER
  5
22F
100
AcDbSymbolTableRecord
100
AcDbLayerTableRecord
  2
QUILT
 70
0
 62
7
  6
CONTINUOUS
370
-3
390
F
  0
LAYER
  5
230
100
AcDbSymbolTableRecord
100
AcDbLayerTableRecord
  2
SKEL
 70
0
 62
7
  6
CONTINUOUS
370
-3
390
F
  0
LAYER
  5
231
100
AcDbSymbolTableRecord
100
AcDbLayerTableRecord
  2
TRASH
 70
0
 62
7
  6
CONTINUOUS
370
-3
390
F
  0
ENDTAB
  0
TABLE
  2
STYLE
  5
3
100
AcDbSymbolTable
 70
1
  0
STYLE
  5
11
100
AcDbSymbolTableRecord
100
AcDbTextStyleTableRecord
  2
STANDARD
 70
0
 40
0.0
 41
0.85
 50
0.0
 71
0
 42
0.2
  3
txt
  4

  0
STYLE
  5
232
100
AcDbSymbolTableRecord
100
AcDbTextStyleTableRecord
  2
TEXTSTYLE_1
 70
0
 40
0.0
 41
0.8
 50
0.0
 71
0
 42
0.2
  3
gdt
  4

  0
STYLE
  5
233
100
AcDbSymbolTableRecord
100
AcDbTextStyleTableRecord
  2
TEXTSTYLE_2
 70
0
 40
0.0
 41
1.0
 50
0.0
 71
0
 42
0.2
  3
neuehaasdisplayroman.ttf
  4

1001
ACAD
1000
Neue Haas Grotesk Display Pro
1071
34
  0
STYLE
  5
234
100
AcDbSymbolTableRecord
100
AcDbTextStyleTableRecord
  2
TEXTSTYLE_3
 70
0
 40
0.0
 41
1.0
 50
0.0
 71
0
 42
0.2
  3
gdt
  4

  0
ENDTAB
  0
TABLE
  2
VIEW
  5
6
100
AcDbSymbolTable
 70
0
  0
ENDTAB
  0
TABLE
  2
UCS
  5
7
100
AcDbSymbolTable
 70
0
  0
ENDTAB
  0
TABLE
  2
APPID
  5
9
100
AcDbSymbolTable
 70
1
  0
APPID
  5
235
100
AcDbSymbolTableRecord
100
AcDbRegAppTableRecord
  2
ACAD
 70
0
  0
ENDTAB
  0
TABLE
  2
BLOCK_RECORD
  5
1
100
AcDbSymbolTable
 70
0
  0
BLOCK_RECORD
  5
236
100
AcDbSymbolTableRecord
100
AcDbBlockTableRecord
  2
*Model_Space
  0
BLOCK_RECORD
  5
237
100
AcDbSymbolTableRecord
100
AcDbBlockTableRecord
  2
*Paper_Space
  0
BLOCK_RECORD
  5
238
100
AcDbSymbolTableRecord
100
AcDbBlockTableRecord
  2
_FILLED
  0
BLOCK_RECORD
  5
239
100
AcDbSymbolTableRecord
100
AcDbBlockTableRecord
  2
*D0
  0
BLOCK_RECORD
  5
23A
100
AcDbSymbolTableRecord
100
AcDbBlockTableRecord
  2
*D1
  0
BLOCK_RECORD
  5
23B
100
AcDbSymbolTableRecord
100
AcDbBlockTableRecord
  2
*D2
  0
BLOCK_RECORD
  5
23C
100
AcDbSymbolTableRecord
100
AcDbBlockTableRecord
  2
*D3
  0
ENDTAB
  0
TABLE
  2
DIMSTYLE
  5
A
100
AcDbSymbolTable
 70
1
100
AcDbDimStyleTable
 71
0
  0
DIMSTYLE
105
23D
100
AcDbSymbolTableRecord
100
AcDbDimStyleTableRecord
  2
STANDARD
 70
0
  3

  4

 40
1.0
 41
9.0
 42
1.0
 43
0.38
 44
1.5
 45
0.0
 46
0.0
 47
0.01
 48
0.01
140
2.5
141
0.09
142
0.0
143
25.4
144
1.0
145
0.0
146
1.0
147
0.625
 71
1
 72
0
 73
0
 74
0
 75
0
 76
0
 77
1
 78
8
 79
2
170
0
171
1
172
0
173
0
174
0
175
0
176
0
177
0
178
0
270
2
179
2
271
2
272
2
273
2
274
2
275
0
280
0
281
0
282
0
283
1
284
8
285
0
286
0
287
3
288
0
340
11
278
44
341
238
342
238
343
238
344
238
  0
DIMSTYLE
105
23E
100
AcDbSymbolTableRecord
100
AcDbDimStyleTableRecord
  2
DIMSTYLE_1
 70
0
  3

  4

 40
1.0
 41
9.0
 42
1.0
 43
0.38
 44
1.5
 45
0.0
 46
0.0
 47
0.3
 48
0.3
140
11.0
141
0.09
142
0.0
143
25.4
144
1.0
145
0.0
146
1.0
147
2.75
 71
0
 72
0
 73
0
 74
0
 75
0
 76
0
 77
1
 78
8
 79
2
170
0
171
1
172
0
173
0
174
0
175
0
176
0
177
0
178
0
270
2
179
2
271
0
272
0
273
2
274
2
275
0
280
0
281
0
282
0
283
1
284
8
285
0
286
0
287
3
288
0
340
233
278
44
341
238
342
238
343
238
344
238
  0
DIMSTYLE
105
23F
100
AcDbSymbolTableRecord
100
AcDbDimStyleTableRecord
  2
DIMSTYLE_2
 70
0
  3

  4

 40
1.0
 41
9.0
 42
1.0
 43
0.38
 44
1.5
 45
0.0
 46
0.0
 47
0.8
 48
0.8
140
11.0
141
0.09
142
0.0
143
25.4
144
1.0
145
0.0
146
1.0
147
2.75
 71
0
 72
0
 73
0
 74
0
 75
0
 76
0
 77
1
 78
8
 79
2
170
0
171
1
172
0
173
0
174
0
175
0
176
0
177
0
178
0
270
2
179
2
271
0
272
0
273
2
274
2
275
0
280
0
281
0
282
0
283
1
284
8
285
0
286
0
287
3
288
0
340
233
278
44
341
238
342
238
343
238
344
238
  0
DIMSTYLE
105
240
100
AcDbSymbolTableRecord
100
AcDbDimStyleTableRecord
  2
DIMSTYLE_3
 70
0
  3

  4

 40
1.0
 41
9.0
 42
1.0
 43
0.38
 44
1.5
 45
0.0
 46
0.0
 47
0.3
 48
0.3
140
11.0
141
0.09
142
0.0
143
25.4
144
1.0
145
0.0
146
1.0
147
2.75
 71
0
 72
0
 73
0
 74
0
 75
0
 76
0
 77
1
 78
8
 79
2
170
0
171
1
172
0
173
0
174
0
175
0
176
0
177
0
178
0
270
2
179
2
271
2
272
2
273
2
274
2
275
0
280
0
281
0
282
0
283
1
284
8
285
0
286
0
287
3
288
0
340
233
278
44
341
238
342
238
343
238
344
238
  0
DIMSTYLE
105
241
100
AcDbSymbolTableRecord
100
AcDbDimStyleTableRecord
  2
DIMSTYLE_4
 70
0
  3

  4

 40
1.0
 41
9.0
 42
1.0
 43
0.38
 44
1.5
 45
0.0
 46
0.0
 47
0.2
 48
0.2
140
11.0
141
0.09
142
0.0
143
25.4
144
1.0
145
0.0
146
1.0
147
2.75
 71
0
 72
0
 73
0
 74
0
 75
0
 76
0
 77
1
 78
8
 79
2
170
0
171
1
172
0
173
0
174
0
175
0
176
0
177
0
178
0
270
2
179
2
271
2
272
2
273
2
274
2
275
0
280
0
281
0
282
0
283
1
284
8
285
0
286
0
287
3
288
0
340
233
278
44
341
238
342
238
343
238
344
238
  0
ENDTAB
  0
ENDSEC
  0
SECTION
  2
BLOCKS
  0
BLOCK
  5
20
100
AcDbEntity
  8
0
100
AcDbBlockBegin
  2
*Model_Space
 70
0
 10
0.0
 20
0.0
 30
0.0
  3
*Model_Space
  1

  0
ENDBLK
  5
21
100
AcDbEntity
  8
0
100
AcDbBlockEnd
  0
BLOCK
  5
1C
100
AcDbEntity
  8
0
100
AcDbBlockBegin
  2
*Paper_Space
 70
0
 10
0.0
 20
0.0
 30
0.0
  3
*Paper_Space
  1

  0
ENDBLK
  5
1D
100
AcDbEntity
  8
0
100
AcDbBlockEnd
  0
BLOCK
  5
242
100
AcDbEntity
  8
0
100
AcDbBlockBegin
  2
_FILLED
 70
64
 10
0.0
 20
0.0
 30
0.0
  3
_FILLED
  1

  0
SOLID
  5
243
100
AcDbEntity
  8
0
  6
BYBLOCK
 62
0
100
AcDbTrace
 10
0.0
 20
0.0
 30
0.0
 11
-1.0
 21
0.3888888889
 31
0.0
 12
-1.0
 22
-0.3888888889
 32
0.0
 13
-1.0
 23
-0.3888888889
 33
0.0
  0
ENDBLK
  5
244
100
AcDbEntity
  8
0
  6
BYBLOCK
 62
0
100
AcDbBlockEnd
  0
BLOCK
  5
245
100
AcDbEntity
  8
4_DIMS
100
AcDbBlockBegin
 62
7
  6
CONTINUOUS
  2
*D0
 70
65
 10
0.0
 20
0.0
 30
0.0
  3
*D0
  1

  0
MTEXT
  5
246
100
AcDbEntity
  8
4_DIMS
100
AcDbMText
 62
7
  6
CONTINUOUS
  7
TEXTSTYLE_3
 71
2
 72
1
 10
52.7211118163
 20
360.826068038
 30
0.0
 11
0.0
 21
1.0
 31
0.0
 73
2
 44
0.9
  1
{\fgdt;n}\fNeueHaasDisplay-Roman;{\W0.85;68}
 40
11.0
 41
32.6032338308
  0
LINE
  5
247
100
AcDbEntity
  8
4_DIMS
100
AcDbLine
 62
7
  6
CONTINUOUS
 10
132.3139833861
 20
394.676068038
 30
0.0
 11
64.9711118163
 21
394.676068038
 31
0.0
  0
LINE
  5
248
100
AcDbEntity
  8
4_DIMS
100
AcDbLine
 62
7
  6
CONTINUOUS
 10
132.3139833861
 20
326.976068038
 30
0.0
 11
64.9711118163
 21
326.976068038
 31
0.0
  0
LINE
  5
249
100
AcDbEntity
  8
4_DIMS
100
AcDbLine
 62
7
  6
CONTINUOUS
 10
66.4711118163
 20
394.676068038
 30
0.0
 11
66.4711118163
 21
360.826068038
 31
0.0
  0
LINE
  5
24A
100
AcDbEntity
  8
4_DIMS
100
AcDbLine
 62
7
  6
CONTINUOUS
 10
66.4711118163
 20
326.976068038
 30
0.0
 11
66.4711118163
 21
360.826068038
 31
0.0
  0
INSERT
  5
24B
100
AcDbEntity
  8
4_DIMS
100
AcDbBlockReference
 62
7
  6
CONTINUOUS
  2
_FILLED
 10
66.4711118163
 20
394.676068038
 30
0.0
 41
9.0
 42
9.0
 43
9.0
 50
90.0
  0
INSERT
  5
24C
100
AcDbEntity
  8
4_DIMS
100
AcDbBlockReference
 62
7
  6
CONTINUOUS
  2
_FILLED
 10
66.4711118163
 20
326.976068038
 30
0.0
 41
9.0
 42
9.0
 43
9.0
 50
270.0
  0
ENDBLK
  5
24D
100
AcDbEntity
  8
0
  6
BYBLOCK
 62
0
100
AcDbBlockEnd
  0
BLOCK
  5
24E
100
AcDbEntity
  8
4_DIMS
100
AcDbBlockBegin
 62
7
  6
CONTINUOUS
  2
*D1
 70
65
 10
0.0
 20
0.0
 30
0.0
  3
*D1
  1

  0
MTEXT
  5
24F
100
AcDbEntity
  8
4_DIMS
100
AcDbMText
 62
7
  6
CONTINUOUS
  7
TEXTSTYLE_2
 71
2
 72
1
 10
438.1139833861
 20
447.1212956454
 30
0.0
 11
1.0
 21
0.0
 31
0.0
 73
2
 44
0.9
  1
677
 40
11.0
 41
24.7089552239
  0
LINE
  5
250
100
AcDbEntity
  8
4_DIMS
100
AcDbLine
 62
7
  6
CONTINUOUS
 10
776.7639833861
 20
361.826068038
 30
0.0
 11
776.7639833861
 21
434.8712956454
 31
0.0
  0
LINE
  5
251
100
AcDbEntity
  8
4_DIMS
100
AcDbLine
 62
7
  6
CONTINUOUS
 10
99.4639833861
 20
361.826068038
 30
0.0
 11
99.4639833861
 21
434.8712956454
 31
0.0
  0
LINE
  5
252
100
AcDbEntity
  8
4_DIMS
100
AcDbLine
 62
7
  6
CONTINUOUS
 10
776.7639833861
 20
433.3712956454
 30
0.0
 11
438.1139833861
 21
433.3712956454
 31
0.0
  0
LINE
  5
253
100
AcDbEntity
  8
4_DIMS
100
AcDbLine
 62
7
  6
CONTINUOUS
 10
99.4639833861
 20
433.3712956454
 30
0.0
 11
438.1139833861
 21
433.3712956454
 31
0.0
  0
INSERT
  5
254
100
AcDbEntity
  8
4_DIMS
100
AcDbBlockReference
 62
7
  6
CONTINUOUS
  2
_FILLED
 10
776.7639833861
 20
433.3712956454
 30
0.0
 41
9.0
 42
9.0
 43
9.0
  0
INSERT
  5
255
100
AcDbEntity
  8
4_DIMS
100
AcDbBlockReference
 62
7
  6
CONTINUOUS
  2
_FILLED
 10
99.4639833861
 20
433.3712956454
 30
0.0
 41
9.0
 42
9.0
 43
9.0
 50
180.0
  0
ENDBLK
  5
256
100
AcDbEntity
  8
0
  6
BYBLOCK
 62
0
100
AcDbBlockEnd
  0
BLOCK
  5
257
100
AcDbEntity
  8
4_DIMS
100
AcDbBlockBegin
 62
7
  6
CONTINUOUS
  2
*D2
 70
65
 10
0.0
 20
0.0
 30
0.0
  3
*D2
  1

  0
MTEXT
  5
258
100
AcDbEntity
  8
4_DIMS
100
AcDbMText
 62
7
  6
CONTINUOUS
  7
TEXTSTYLE_2
 71
2
 72
1
 10
57.0705284428
 20
205.1978310114
 30
0.0
 11
0.0
 21
1.0
 31
0.0
 73
2
 44
0.9
  1
82,5
 40
11.0
 41
28.8955223881
  0
LINE
  5
259
100
AcDbEntity
  8
4_DIMS
100
AcDbLine
 62
7
  6
CONTINUOUS
 10
132.3139833861
 20
246.4478310114
 30
0.0
 11
69.3205284428
 21
246.4478310114
 31
0.0
  0
LINE
  5
25A
100
AcDbEntity
  8
4_DIMS
100
AcDbLine
 62
7
  6
CONTINUOUS
 10
132.3139833861
 20
163.9478310114
 30
0.0
 11
69.3205284428
 21
163.9478310114
 31
0.0
  0
LINE
  5
25B
100
AcDbEntity
  8
4_DIMS
100
AcDbLine
 62
7
  6
CONTINUOUS
 10
70.8205284428
 20
246.4478310114
 30
0.0
 11
70.8205284428
 21
205.1978310114
 31
0.0
  0
LINE
  5
25C
100
AcDbEntity
  8
4_DIMS
100
AcDbLine
 62
7
  6
CONTINUOUS
 10
70.8205284428
 20
163.9478310114
 30
0.0
 11
70.8205284428
 21
205.1978310114
 31
0.0
  0
INSERT
  5
25D
100
AcDbEntity
  8
4_DIMS
100
AcDbBlockReference
 62
7
  6
CONTINUOUS
  2
_FILLED
 10
70.8205284428
 20
246.4478310114
 30
0.0
 41
9.0
 42
9.0
 43
9.0
 50
90.0
  0
INSERT
  5
25E
100
AcDbEntity
  8
4_DIMS
100
AcDbBlockReference
 62
7
  6
CONTINUOUS
  2
_FILLED
 10
70.8205284428
 20
163.9478310114
 30
0.0
 41
9.0
 42
9.0
 43
9.0
 50
270.0
  0
ENDBLK
  5
25F
100
AcDbEntity
  8
0
  6
BYBLOCK
 62
0
100
AcDbBlockEnd
  0
BLOCK
  5
260
100
AcDbEntity
  8
4_DIMS
100
AcDbBlockBegin
 62
7
  6
CONTINUOUS
  2
*D3
 70
65
 10
0.0
 20
0.0
 30
0.0
  3
*D3
  1

  0
MTEXT
  5
261
100
AcDbEntity
  8
4_DIMS
100
AcDbMText
 62
7
  6
CONTINUOUS
  7
TEXTSTYLE_3
 71
3
 72
1
 10
240.7339422149
 20
338.7549632404
 30
0.0
 11
0.0
 21
1.0
 31
0.0
 73
2
 44
0.9
  1
{\fgdt;n}\fNeueHaasDisplay-Roman;{\W0.85;14}
 40
11.0
 41
28.7039800995
  0
LINE
  5
262
100
AcDbEntity
  8
4_DIMS
100
AcDbLine
 62
7
  6
CONTINUOUS
 10
254.4839422149
 20
367.826068038
 30
0.0
 11
254.4839422149
 21
372.826068038
 31
0.0
  0
LINE
  5
263
100
AcDbEntity
  8
4_DIMS
100
AcDbLine
 62
7
  6
CONTINUOUS
 10
254.4839422149
 20
372.826068038
 30
0.0
 11
254.4839422149
 21
360.826068038
 31
0.0
  0
LINE
  5
264
100
AcDbEntity
  8
4_DIMS
100
AcDbLine
 62
7
  6
CONTINUOUS
 10
254.4839422149
 20
353.826068038
 30
0.0
 11
254.4839422149
 21
310.0509831409
 31
0.0
  0
LINE
  5
265
100
AcDbEntity
  8
4_DIMS
100
AcDbLine
 62
7
  6
CONTINUOUS
 10
254.4839422149
 20
310.0509831409
 30
0.0
 11
254.4839422149
 21
360.826068038
 31
0.0
  0
INSERT
  5
266
100
AcDbEntity
  8
4_DIMS
100
AcDbBlockReference
 62
7
  6
CONTINUOUS
  2
_FILLED
 10
254.4839422149
 20
367.826068038
 30
0.0
 41
9.0
 42
9.0
 43
9.0
 50
270.0
  0
INSERT
  5
267
100
AcDbEntity
  8
4_DIMS
100
AcDbBlockReference
 62
7
  6
CONTINUOUS
  2
_FILLED
 10
254.4839422149
 20
353.826068038
 30
0.0
 41
9.0
 42
9.0
 43
9.0
 50
90.0
  0
ENDBLK
  5
268
100
AcDbEntity
  8
0
  6
BYBLOCK
 62
0
100
AcDbBlockEnd
  0
ENDSEC
  0
SECTION
  2
ENTITIES
  0
DIMENSION
  5
269
100
AcDbEntity
  8
4_DIMS
100
AcDbDimension
 62
7
  6
CONTINUOUS
  2
*D0
 10
66.4711118163
 20
326.976068038
 30
0.0
 11
66.4711118163
 21
360.826068038
 31
0.0
 70
160
 71
2
 72
2
 41
0.9
 42
67.7
  1
%%c<>
  3
DIMSTYLE_1
100
AcDbAlignedDimension
 13
133.3139833861
 23
394.676068038
 33
0.0
 14
133.3139833861
 24
326.976068038
 34
0.0
 50
270.0
100
AcDbRotatedDimension
  0
DIMENSION
  5
26A
100
AcDbEntity
  8
4_DIMS
100
AcDbDimension
 62
7
  6
CONTINUOUS
  2
*D1
 10
99.4639833861
 20
433.3712956454
 30
0.0
 11
438.3653854828
 21
433.3712956454
 31
0.0
 70
160
 71
2
 72
2
 41
0.9
 42
677.3
  3
DIMSTYLE_2
100
AcDbAlignedDimension
 13
776.7639833861
 23
360.826068038
 33
0.0
 14
99.4639833861
 24
360.826068038
 34
0.0
 50
180.0
100
AcDbRotatedDimension
  0
DIMENSION
  5
26B
100
AcDbEntity
  8
4_DIMS
100
AcDbDimension
 62
7
  6
CONTINUOUS
  2
*D2
 10
70.8205284428
 20
163.9478310114
 30
0.0
 11
70.8205284428
 21
205.1952651486
 31
0.0
 70
160
 71
2
 72
2
 41
0.9
 42
82.5
  3
DIMSTYLE_3
100
AcDbAlignedDimension
 13
133.3139833861
 23
246.4478310114
 33
0.0
 14
133.3139833861
 24
163.9478310114
 34
0.0
 50
270.0
100
AcDbRotatedDimension
  0
DIMENSION
  5
26C
100
AcDbEntity
  8
4_DIMS
100
AcDbDimension
 62
7
  6
CONTINUOUS
  2
*D3
 10
254.4839422149
 20
353.826068038
 30
0.0
 11
254.4839422149
 21
324.4029731906
 31
0.0
 70
160
 71
3
 72
2
 41
0.9
 42
14.0
  1
%%c<>
  3
DIMSTYLE_4
100
AcDbAlignedDimension
 13
133.3139833861
 23
367.826068038
 33
0.0
 14
133.3139833861
 24
353.826068038
 34
0.0
 50
270.0
100
AcDbRotatedDimension
  0
LINE
  5
26D
100
AcDbEntity
  8
0
100
AcDbLine
 62
7
  6
CONTINUOUS
 10
0.0
 20
0.0
 30
0.0
 11
0.0
 21
594.0
 31
0.0
  0
LINE
  5
26E
100
AcDbEntity
  8
0
100
AcDbLine
 62
7
  6
CONTINUOUS
 10
0.0
 20
0.0
 30
0.0
 11
841.0
 21
0.0
 31
0.0
  0
LINE
  5
26F
100
AcDbEntity
  8
0
100
AcDbLine
 62
7
  6
CONTINUOUS
 10
0.0
 20
594.0
 30
0.0
 11
841.0
 21
594.0
 31
0.0
  0
LINE
  5
270
100
AcDbEntity
  8
0
100
AcDbLine
 62
7
  6
CONTINUOUS
 10
841.0
 20
0.0
 30
0.0
 11
841.0
 21
594.0
 31
0.0
  0
LINE
  5
271
100
AcDbEntity
  8
3_ALL_AXES
100
AcDbLine
 62
7
  6
CONTINUOUS
 10
147.2961148402
 20
353.576068038
 30
0.0
 11
147.2961148402
 21
368.076068038
 31
0.0
  0
LINE
  5
272
100
AcDbEntity
  8
3_ALL_AXES
100
AcDbLine
 62
7
  6
CONTINUOUS
 10
728.931851932
 20
353.826068038
 30
0.0
 11
147.2961148402
 21
353.826068038
 31
0.0
  0
LINE
  5
273
100
AcDbEntity
  8
3_ALL_AXES
100
AcDbLine
 62
7
  6
CONTINUOUS
 10
728.931851932
 20
367.826068038
 30
0.0
 11
147.2961148402
 21
367.826068038
 31
0.0
  0
LINE
  5
274
100
AcDbEntity
  8
3_ALL_AXES
100
AcDbLine
 62
7
  6
CONTINUOUS
 10
728.931851932
 20
368.076068038
 30
0.0
 11
728.931851932
 21
353.576068038
 31
0.0
  0
LINE
  5
275
100
AcDbEntity
  8
3_ALL_AXES
100
AcDbLine
 62
7
  6
CONTINUOUS
 10
99.4639833861
 20
243.4478310114
 30
0.0
 11
99.4639833861
 21
246.4478310114
 31
0.0
  0
LINE
  5
276
100
AcDbEntity
  8
3_ALL_AXES
100
AcDbLine
 62
7
  6
CONTINUOUS
 10
113.5639833861
 20
233.1478310114
 30
0.0
 11
113.5639833861
 21
234.1478310114
 31
0.0
  0
LINE
  5
277
100
AcDbEntity
  8
3_ALL_AXES
100
AcDbLine
 62
7
  6
CONTINUOUS
 10
118.3139833861
 20
229.4478310114
 30
0.0
 11
118.3139833861
 21
228.4478310114
 31
0.0
  0
LINE
  5
278
100
AcDbEntity
  8
3_ALL_AXES
100
AcDbLine
 62
7
  6
CONTINUOUS
 10
147.2961148402
 20
172.4478310114
 30
0.0
 11
147.2961148402
 21
186.9478310114
 31
0.0
  0
LINE
  5
279
100
AcDbEntity
  8
3_ALL_AXES
100
AcDbLine
 62
7
  6
CONTINUOUS
 10
148.3139833861
 20
229.4478310114
 30
0.0
 11
148.3139833861
 21
228.4478310114
 31
0.0
  0
LINE
  5
27A
100
AcDbEntity
  8
3_ALL_AXES
100
AcDbLine
 62
7
  6
CONTINUOUS
 10
153.0639833861
 20
233.1478310114
 30
0.0
 11
153.0639833861
 21
234.1478310114
 31
0.0
  0
LINE
  5
27B
100
AcDbEntity
  8
3_ALL_AXES
100
AcDbLine
 62
7
  6
CONTINUOUS
 10
167.1639833861
 20
243.4478310114
 30
0.0
 11
167.1639833861
 21
246.4478310114
 31
0.0
  0
LINE
  5
27C
100
AcDbEntity
  8
3_ALL_AXES
100
AcDbLine
 62
7
  6
CONTINUOUS
 10
728.931851932
 20
172.6978310114
 30
0.0
 11
147.2961148402
 21
172.6978310114
 31
0.0
  0
LINE
  5
27D
100
AcDbEntity
  8
3_ALL_AXES
100
AcDbLine
 62
7
  6
CONTINUOUS
 10
728.931851932
 20
186.6978310114
 30
0.0
 11
147.2961148402
 21
186.6978310114
 31
0.0
  0
LINE
  5
27E
100
AcDbEntity
  8
3_ALL_AXES
100
AcDbLine
 62
7
  6
CONTINUOUS
 10
125.5639833861
 20
193.4478310114
 30
0.0
 11
141.0639833861
 21
193.4478310114
 31
0.0
  0
LINE
  5
27F
100
AcDbEntity
  8
3_ALL_AXES
100
AcDbLine
 62
7
  6
CONTINUOUS
 10
735.1639833861
 20
193.4478310114
 30
0.0
 11
750.6639833861
 21
193.4478310114
 31
0.0
  0
LINE
  5
280
100
AcDbEntity
  8
3_ALL_AXES
100
AcDbLine
 62
7
  6
CONTINUOUS
 10
750.6639833861
 20
196.4478310114
 30
0.0
 11
735.1639833861
 21
196.4478310114
 31
0.0
  0
LINE
  5
281
100
AcDbEntity
  8
3_ALL_AXES
100
AcDbLine
 62
7
  6
CONTINUOUS
 10
125.5639833861
 20
196.4478310114
 30
0.0
 11
141.0639833861
 21
196.4478310114
 31
0.0
  0
LINE
  5
282
100
AcDbEntity
  8
3_ALL_AXES
100
AcDbLine
 62
7
  6
CONTINUOUS
 10
757.9139833861
 20
228.4478310114
 30
0.0
 11
727.9139833861
 21
228.4478310114
 31
0.0
  0
LINE
  5
283
100
AcDbEntity
  8
3_ALL_AXES
100
AcDbLine
 62
7
  6
CONTINUOUS
 10
118.3139833861
 20
228.4478310114
 30
0.0
 11
148.3139833861
 21
228.4478310114
 31
0.0
  0
LINE
  5
284
100
AcDbEntity
  8
3_ALL_AXES
100
AcDbLine
 62
7
  6
CONTINUOUS
 10
757.9139833861
 20
229.4478310114
 30
0.0
 11
727.9139833861
 21
229.4478310114
 31
0.0
  0
LINE
  5
285
100
AcDbEntity
  8
3_ALL_AXES
100
AcDbLine
 62
7
  6
CONTINUOUS
 10
118.3139833861
 20
229.4478310114
 30
0.0
 11
148.3139833861
 21
229.4478310114
 31
0.0
  0
LINE
  5
286
100
AcDbEntity
  8
7_ALL_FEATURES
100
AcDbLine
 62
7
  6
CONTINUOUS
 10
758.1617712349
 20
229.9843344183
 30
0.0
 11
727.6661955372
 21
229.9843344183
 31
0.0
  0
LINE
  5
287
100
AcDbEntity
  8
7_ALL_FEATURES
100
AcDbLine
 62
7
  6
CONTINUOUS
 10
148.5617712349
 20
229.9843344183
 30
0.0
 11
118.0661955372
 21
229.9843344183
 31
0.0
  0
LINE
  5
288
100
AcDbEntity
  8
3_ALL_AXES
100
AcDbLine
 62
7
  6
CONTINUOUS
 10
113.5639833861
 20
233.1478310114
 30
0.0
 11
153.0639833861
 21
233.1478310114
 31
0.0
  0
LINE
  5
289
100
AcDbEntity
  8
3_ALL_AXES
100
AcDbLine
 62
7
  6
CONTINUOUS
 10
723.1639833861
 20
233.1478310114
 30
0.0
 11
762.6639833861
 21
233.1478310114
 31
0.0
  0
LINE
  5
28A
100
AcDbEntity
  8
3_ALL_AXES
100
AcDbLine
 62
7
  6
CONTINUOUS
 10
110.4103458195
 20
234.1478310114
 30
0.0
 11
156.2176209526
 21
234.1478310114
 31
0.0
  0
LINE
  5
28B
100
AcDbEntity
  8
3_ALL_AXES
100
AcDbLine
 62
7
  6
CONTINUOUS
 10
720.0103458195
 20
234.1478310114
 30
0.0
 11
765.8176209526
 21
234.1478310114
 31
0.0
  0
LINE
  5
28C
100
AcDbEntity
  8
3_ALL_AXES
100
AcDbLine
 62
7
  6
CONTINUOUS
 10
103.4639833861
 20
239.4478310114
 30
0.0
 11
163.1639833861
 21
239.4478310114
 31
0.0
  0
LINE
  5
28D
100
AcDbEntity
  8
3_ALL_AXES
100
AcDbLine
 62
7
  6
CONTINUOUS
 10
713.0639833861
 20
239.4478310114
 30
0.0
 11
772.7639833861
 21
239.4478310114
 31
0.0
  0
LINE
  5
28E
100
AcDbEntity
  8
3_ALL_AXES
100
AcDbLine
 62
7
  6
CONTINUOUS
 10
99.4639833861
 20
243.4478310114
 30
0.0
 11
167.1639833861
 21
243.4478310114
 31
0.0
  0
LINE
  5
28F
100
AcDbEntity
  8
3_ALL_AXES
100
AcDbLine
 62
7
  6
CONTINUOUS
 10
709.0639833861
 20
243.4478310114
 30
0.0
 11
776.7639833861
 21
243.4478310114
 31
0.0
  0
LINE
  5
290
100
AcDbEntity
  8
3_ALL_AXES
100
AcDbLine
 62
7
  6
CONTINUOUS
 10
99.4639833861
 20
246.4478310114
 30
0.0
 11
167.1639833861
 21
246.4478310114
 31
0.0
  0
LINE
  5
291
100
AcDbEntity
  8
3_ALL_AXES
100
AcDbLine
 62
7
  6
CONTINUOUS
 10
709.0639833861
 20
246.4478310114
 30
0.0
 11
776.7639833861
 21
246.4478310114
 31
0.0
  0
LINE
  5
292
100
AcDbEntity
  8
3_ALL_AXES
100
AcDbLine
 62
7
  6
CONTINUOUS
 10
709.0639833861
 20
243.4478310114
 30
0.0
 11
709.0639833861
 21
246.4478310114
 31
0.0
  0
LINE
  5
293
100
AcDbEntity
  8
3_ALL_AXES
100
AcDbLine
 62
7
  6
CONTINUOUS
 10
723.1639833861
 20
233.1478310114
 30
0.0
 11
723.1639833861
 21
234.1478310114
 31
0.0
  0
LINE
  5
294
100
AcDbEntity
  8
3_ALL_AXES
100
AcDbLine
 62
7
  6
CONTINUOUS
 10
727.9139833861
 20
229.4478310114
 30
0.0
 11
727.9139833861
 21
228.4478310114
 31
0.0
  0
LINE
  5
295
100
AcDbEntity
  8
3_ALL_AXES
100
AcDbLine
 62
7
  6
CONTINUOUS
 10
728.931851932
 20
186.9478310114
 30
0.0
 11
728.931851932
 21
172.4478310114
 31
0.0
  0
LINE
  5
296
100
AcDbEntity
  8
3_ALL_AXES
100
AcDbLine
 62
7
  6
CONTINUOUS
 10
757.9139833861
 20
229.4478310114
 30
0.0
 11
757.9139833861
 21
228.4478310114
 31
0.0
  0
LINE
  5
297
100
AcDbEntity
  8
3_ALL_AXES
100
AcDbLine
 62
7
  6
CONTINUOUS
 10
762.6639833861
 20
233.1478310114
 30
0.0
 11
762.6639833861
 21
234.1478310114
 31
0.0
  0
LINE
  5
298
100
AcDbEntity
  8
3_ALL_AXES
100
AcDbLine
 62
7
  6
CONTINUOUS
 10
776.7639833861
 20
243.4478310114
 30
0.0
 11
776.7639833861
 21
246.4478310114
 31
0.0
  0
ARC
  5
299
100
AcDbEntity
  8
3_ALL_AXES
100
AcDbCircle
 62
7
  6
CONTINUOUS
 10
133.313623704
 20
321.4125308304
 30
0.0
 40
6.1230992969
100
AcDbArc
 50
88.1867394555
 51
89.9966343411
  0
ARC
  5
29A
100
AcDbEntity
  8
3_ALL_AXES
100
AcDbCircle
 62
7
  6
CONTINUOUS
 10
133.3139833861
 20
360.826068038
 30
0.0
 40
33.85
100
AcDbArc
 50
11.9421526839
 51
348.0577259642
  0
ARC
  5
29B
100
AcDbEntity
  8
3_ALL_AXES
100
AcDbCircle
 62
7
  6
CONTINUOUS
 10
133.3139833861
 20
360.826068038
 30
0.0
 40
29.85
100
AcDbArc
 50
13.5634743218
 51
346.4365256782
  0
ARC
  5
29C
100
AcDbEntity
  8
3_ALL_AXES
100
AcDbCircle
 62
7
  6
CONTINUOUS
 10
133.3139833861
 20
360.826068038
 30
0.0
 40
28.4
100
AcDbArc
 50
14.2696678427
 51
345.7303321573
  0
ARC
  5
29D
100
AcDbEntity
  8
3_ALL_AXES
100
AcDbCircle
 62
7
  6
CONTINUOUS
 10
133.3139833861
 20
360.826068038
 30
0.0
 40
22.9036375665
100
AcDbArc
 50
17.8091515162
 51
342.1908484838
  0
ARC
  5
29E
100
AcDbEntity
  8
3_ALL_AXES
100
AcDbCircle
 62
7
  6
CONTINUOUS
 10
133.3139833861
 20
360.826068038
 30
0.0
 40
19.75
100
AcDbArc
 50
20.7800263836
 51
339.2199736164
  0
ARC
  5
29F
100
AcDbEntity
  8
3_ALL_AXES
100
AcDbCircle
 62
7
  6
CONTINUOUS
 10
133.3139833861
 20
360.826068038
 30
0.0
 40
15.75
100
AcDbArc
 50
27.4075945328
 51
332.5924054672
  0
ARC
  5
2A0
100
AcDbEntity
  8
3_ALL_AXES
100
AcDbCircle
 62
7
  6
CONTINUOUS
 10
742.913623704
 20
321.4125308304
 30
0.0
 40
6.1230992969
100
AcDbArc
 50
88.1867394555
 51
89.9966343411
  0
ARC
  5
2A1
100
AcDbEntity
  8
3_ALL_AXES
100
AcDbCircle
 62
7
  6
CONTINUOUS
 10
742.9139833861
 20
360.826068038
 30
0.0
 40
33.85
100
AcDbArc
 50
191.9422740358
 51
168.0578473161
  0
ARC
  5
2A2
100
AcDbEntity
  8
3_ALL_AXES
100
AcDbCircle
 62
7
  6
CONTINUOUS
 10
742.9139833861
 20
360.826068038
 30
0.0
 40
29.85
100
AcDbArc
 50
193.5634743218
 51
166.4365256782
  0
ARC
  5
2A3
100
AcDbEntity
  8
3_ALL_AXES
100
AcDbCircle
 62
7
  6
CONTINUOUS
 10
742.9139833861
 20
360.826068038
 30
0.0
 40
28.4
100
AcDbArc
 50
194.2696678427
 51
165.7303321573
  0
ARC
  5
2A4
100
AcDbEntity
  8
3_ALL_AXES
100
AcDbCircle
 62
7
  6
CONTINUOUS
 10
742.9139833861
 20
360.826068038
 30
0.0
 40
22.9036375665
100
AcDbArc
 50
197.8091515162
 51
162.1908484838
  0
ARC
  5
2A5
100
AcDbEntity
  8
3_ALL_AXES
100
AcDbCircle
 62
7
  6
CONTINUOUS
 10
742.9139833861
 20
360.826068038
 30
0.0
 40
19.75
100
AcDbArc
 50
200.7800263836
 51
159.2199736164
  0
ARC
  5
2A6
100
AcDbEntity
  8
3_ALL_AXES
100
AcDbCircle
 62
7
  6
CONTINUOUS
 10
742.9139833861
 20
360.826068038
 30
0.0
 40
15.75
100
AcDbArc
 50
207.4075945328
 51
152.5924054672
  0
ARC
  5
2A7
100
AcDbEntity
  8
3_ALL_AXES
100
AcDbCircle
 62
7
  6
CONTINUOUS
 10
82.1209473447
 20
203.4265572208
 30
0.0
 40
44.0
100
AcDbArc
 50
350.873925215
 51
34.6572063471
  0
ARC
  5
2A8
100
AcDbEntity
  8
3_ALL_AXES
100
AcDbCircle
 62
7
  6
CONTINUOUS
 10
184.5070194275
 20
203.4265572208
 30
0.0
 40
44.0
100
AcDbArc
 50
145.3427936529
 51
189.126074785
  0
ARC
  5
2A9
100
AcDbEntity
  8
3_ALL_AXES
100
AcDbCircle
 62
7
  6
CONTINUOUS
 10
133.3139833861
 20
179.6978310114
 30
0.0
 40
15.75
100
AcDbArc
 50
27.4075945328
 51
60.8238976697
  0
ARC
  5
2AA
100
AcDbEntity
  8
3_ALL_AXES
100
AcDbCircle
 62
7
  6
CONTINUOUS
 10
133.3139833861
 20
179.6978310114
 30
0.0
 40
15.75
100
AcDbArc
 50
119.1761023303
 51
332.5924054672
  0
ARC
  5
2AB
100
AcDbEntity
  8
3_ALL_AXES
100
AcDbCircle
 62
7
  6
CONTINUOUS
 10
125.5639833861
 20
194.9478310114
 30
0.0
 40
1.5
100
AcDbArc
 50
90.0
 51
270.0
  0
ARC
  5
2AC
100
AcDbEntity
  8
3_ALL_AXES
100
AcDbCircle
 62
7
  6
CONTINUOUS
 10
141.0639833861
 20
194.9478310114
 30
0.0
 40
1.5
100
AcDbArc
 50
270.0
 51
90.0
  0
ARC
  5
2AD
100
AcDbEntity
  8
3_ALL_AXES
100
AcDbCircle
 62
7
  6
CONTINUOUS
 10
153.8783639913
 20
227.2033559101
 30
0.0
 40
6.0
100
AcDbArc
 50
97.8008401924
 51
152.3870422471
  0
ARC
  5
2AE
100
AcDbEntity
  8
3_ALL_AXES
100
AcDbCircle
 62
7
  6
CONTINUOUS
 10
112.7496027809
 20
227.2033559101
 30
0.0
 40
6.0
100
AcDbArc
 50
27.6129577529
 51
82.1991598076
  0
ARC
  5
2AF
100
AcDbEntity
  8
3_ALL_AXES
100
AcDbCircle
 62
7
  6
CONTINUOUS
 10
156.2176209526
 20
239.6478310114
 30
0.0
 40
5.5
100
AcDbArc
 50
270.0
 51
357.9160576654
  0
ARC
  5
2B0
100
AcDbEntity
  8
3_ALL_AXES
100
AcDbCircle
 62
7
  6
CONTINUOUS
 10
110.4103458195
 20
239.6478310114
 30
0.0
 40
5.5
100
AcDbArc
 50
182.0839423346
 51
270.0
  0
ARC
  5
2B1
100
AcDbEntity
  8
3_ALL_AXES
100
AcDbCircle
 62
7
  6
CONTINUOUS
 10
163.1639833861
 20
243.4478310114
 30
0.0
 40
4.0
100
AcDbArc
 50
270.0
 51
360.0
  0
ARC
  5
2B2
100
AcDbEntity
  8
3_ALL_AXES
100
AcDbCircle
 62
7
  6
CONTINUOUS
 10
103.4639833861
 20
243.4478310114
 30
0.0
 40
4.0
100
AcDbArc
 50
180.0
 51
270.0
  0
ARC
  5
2B3
100
AcDbEntity
  8
7_ALL_FEATURES
100
AcDbCircle
 62
7
  6
CONTINUOUS
 10
147.6756725338
 20
230.4478310114
 30
0.0
 40
1.0
100
AcDbArc
 50
270.0
 51
332.3870422471
  0
ARC
  5
2B4
100
AcDbEntity
  8
7_ALL_FEATURES
100
AcDbCircle
 62
7
  6
CONTINUOUS
 10
118.9522942384
 20
230.4478310114
 30
0.0
 40
1.0
100
AcDbArc
 50
207.6129577529
 51
270.0
  0
ARC
  5
2B5
100
AcDbEntity
  8
3_ALL_AXES
100
AcDbCircle
 62
7
  6
CONTINUOUS
 10
794.1070194275
 20
203.4265572208
 30
0.0
 40
44.0
100
AcDbArc
 50
145.3427936529
 51
189.126074785
  0
ARC
  5
2B6
100
AcDbEntity
  8
3_ALL_AXES
100
AcDbCircle
 62
7
  6
CONTINUOUS
 10
691.7209473447
 20
203.4265572208
 30
0.0
 40
44.0
100
AcDbArc
 50
350.873925215
 51
34.6572063471
  0
ARC
  5
2B7
100
AcDbEntity
  8
3_ALL_AXES
100
AcDbCircle
 62
7
  6
CONTINUOUS
 10
742.9139833861
 20
179.6978310114
 30
0.0
 40
15.75
100
AcDbArc
 50
119.1761023303
 51
152.5924054672
  0
ARC
  5
2B8
100
AcDbEntity
  8
3_ALL_AXES
100
AcDbCircle
 62
7
  6
CONTINUOUS
 10
742.9139833861
 20
179.6978310114
 30
0.0
 40
15.75
100
AcDbArc
 50
207.4075945328
 51
60.8238976697
  0
ARC
  5
2B9
100
AcDbEntity
  8
3_ALL_AXES
100
AcDbCircle
 62
7
  6
CONTINUOUS
 10
735.1639833861
 20
194.9478310114
 30
0.0
 40
1.5
100
AcDbArc
 50
90.0
 51
270.0
  0
ARC
  5
2BA
100
AcDbEntity
  8
3_ALL_AXES
100
AcDbCircle
 62
7
  6
CONTINUOUS
 10
750.6639833861
 20
194.9478310114
 30
0.0
 40
1.5
100
AcDbArc
 50
270.0
 51
90.0
  0
ARC
  5
2BB
100
AcDbEntity
  8
3_ALL_AXES
100
AcDbCircle
 62
7
  6
CONTINUOUS
 10
763.4783639913
 20
227.2033559101
 30
0.0
 40
6.0
100
AcDbArc
 50
97.8008401924
 51
152.3870422471
  0
ARC
  5
2BC
100
AcDbEntity
  8
3_ALL_AXES
100
AcDbCircle
 62
7
  6
CONTINUOUS
 10
722.3496027809
 20
227.2033559101
 30
0.0
 40
6.0
100
AcDbArc
 50
27.6129577529
 51
82.1991598076
  0
ARC
  5
2BD
100
AcDbEntity
  8
3_ALL_AXES
100
AcDbCircle
 62
7
  6
CONTINUOUS
 10
765.8176209526
 20
239.6478310114
 30
0.0
 40
5.5
100
AcDbArc
 50
270.0
 51
357.9160576654
  0
ARC
  5
2BE
100
AcDbEntity
  8
3_ALL_AXES
100
AcDbCircle
 62
7
  6
CONTINUOUS
 10
720.0103458195
 20
239.6478310114
 30
0.0
 40
5.5
100
AcDbArc
 50
182.0839423346
 51
270.0
  0
ARC
  5
2BF
100
AcDbEntity
  8
3_ALL_AXES
100
AcDbCircle
 62
7
  6
CONTINUOUS
 10
772.7639833861
 20
243.4478310114
 30
0.0
 40
4.0
100
AcDbArc
 50
270.0
 51
360.0
  0
ARC
  5
2C0
100
AcDbEntity
  8
3_ALL_AXES
100
AcDbCircle
 62
7
  6
CONTINUOUS
 10
713.0639833861
 20
243.4478310114
 30
0.0
 40
4.0
100
AcDbArc
 50
180.0
 51
270.0
  0
ARC
  5
2C1
100
AcDbEntity
  8
7_ALL_FEATURES
100
AcDbCircle
 62
7
  6
CONTINUOUS
 10
757.2756725338
 20
230.4478310114
 30
0.0
 40
1.0
100
AcDbArc
 50
270.0
 51
332.3870422471
  0
ARC
  5
2C2
100
AcDbEntity
  8
7_ALL_FEATURES
100
AcDbCircle
 62
7
  6
CONTINUOUS
 10
728.5522942384
 20
230.4478310114
 30
0.0
 40
1.0
100
AcDbArc
 50
207.6129577529
 51
270.0
  0
SPLINE
  5
2C3
100
AcDbEntity
  8
3_ALL_AXES
100
AcDbSpline
 62
7
  6
CONTINUOUS
 70
0
 71
3
 72
10
 73
6
 74
0
 42
0.0000001
 43
0.0000001
 44
0.0000000001
 40
0.0
 40
0.0
 40
0.0
 40
0.0
 40
0.3369718885
 40
0.6525510478
 40
1.0
 40
1.0
 40
1.0
 40
1.0
 10
740.4069502679
 20
327.0690349198
 30
0.0
 10
740.6789553182
 20
327.1615447198
 30
0.0
 10
741.213052172
 20
327.3236113324
 30
0.0
 10
742.0507352239
 20
327.4934598179
 30
0.0
 10
742.6174300795
 20
327.5356301168
 30
0.0
 10
742.9139833861
 20
327.5356301168
 30
0.0
  0
SPLINE
  5
2C4
100
AcDbEntity
  8
3_ALL_AXES
100
AcDbSpline
 62
7
  6
CONTINUOUS
 70
0
 71
3
 72
9
 73
5
 74
0
 42
0.0000001
 43
0.0000001
 44
0.0000000001
 40
0.0
 40
0.0
 40
0.0
 40
0.0
 40
0.6680692572
 40
1.0
 40
1.0
 40
1.0
 40
1.0
 10
743.1073713275
 20
327.5325640704
 30
0.0
 10
743.6337652713
 20
327.5159294384
 30
0.0
 10
744.4185869045
 20
327.3846970664
 30
0.0
 10
745.1745790615
 20
327.1535330934
 30
0.0
 10
745.4210165043
 20
327.0690349198
 30
0.0
  0
SPLINE
  5
2C5
100
AcDbEntity
  8
3_ALL_AXES
100
AcDbSpline
 62
7
  6
CONTINUOUS
 70
0
 71
3
 72
10
 73
6
 74
0
 42
0.0000001
 43
0.0000001
 44
0.0000000001
 40
0.0
 40
0.0
 40
0.0
 40
0.0
 40
0.3369718885
 40
0.6525510478
 40
1.0
 40
1.0
 40
1.0
 40
1.0
 10
130.8069502679
 20
327.0690349198
 30
0.0
 10
131.0789553182
 20
327.1615447198
 30
0.0
 10
131.613052172
 20
327.3236113324
 30
0.0
 10
132.4507352239
 20
327.4934598179
 30
0.0
 10
133.0174300795
 20
327.5356301168
 30
0.0
 10
133.3139833861
 20
327.5356301168
 30
0.0
  0
SPLINE
  5
2C6
100
AcDbEntity
  8
3_ALL_AXES
100
AcDbSpline
 62
7
  6
CONTINUOUS
 70
0
 71
3
 72
9
 73
5
 74
0
 42
0.0000001
 43
0.0000001
 44
0.0000000001
 40
0.0
 40
0.0
 40
0.0
 40
0.0
 40
0.6680692572
 40
1.0
 40
1.0
 40
1.0
 40
1.0
 10
133.5073713275
 20
327.5325640704
 30
0.0
 10
134.0337652713
 20
327.5159294384
 30
0.0
 10
134.8185869045
 20
327.3846970664
 30
0.0
 10
135.5745790615
 20
327.1535330934
 30
0.0
 10
135.8210165043
 20
327.0690349198
 30
0.0
  0
ENDSEC
  0
SECTION
  2
OBJECTS
  0
DICTIONARY
  5
C
100
AcDbDictionary
280
0
281
1
  3
ACAD_GROUP
350
D
  3
ACAD_MLINESTYLE
350
17
  3
ACAD_LAYOUT
350
1A
  3
ACAD_PLOTSETTINGS
350
19
  3
ACAD_PLOTSTYLENAME
350
E
  0
DICTIONARY
  5
D
102
{ACAD_REACTORS
330
C
102
}
100
AcDbDictionary
280
0
281
1
  0
ACDBDICTIONARYWDFLT
  5
E
102
{ACAD_REACTORS
330
C
102
}
100
AcDbDictionary
281
1
  3
Normal
350
F
100
AcDbDictionaryWithDefault
340
F
  0
DICTIONARY
  5
17
102
{ACAD_REACTORS
330
C
102
}
100
AcDbDictionary
280
0
281
1
  3
Standard
350
18
  0
DICTIONARY
  5
19
102
{ACAD_REACTORS
330
C
102
}
100
AcDbDictionary
281
1
  0
DICTIONARY
  5
1A
102
{ACAD_REACTORS
330
C
102
}
100
AcDbDictionary
281
1
  3
Model
350
2C7
  3
Layout1
350
2C8
  0
ACDBPLACEHOLDER
  5
F
102
{ACAD_REACTORS
330
E
102
}
  0
MLINESTYLE
  5
18
102
{ACAD_REACTORS
330
17
102
}
100
AcDbMlineStyle
  2
STANDARD
 70
0
  3

 62
256
 51
90.0
 52
90.0
 71
2
 49
0.5
 62
256
  6
BYLAYER
 49
-0.5
 62
256
  6
BYLAYER
  0
LAYOUT
  5
2C7
102
{ACAD_REACTORS
330
1A
102
}
100
AcDbPlotSettings
  1

  2
none_device
  4
ISO_A1_(594.00_x_841.00_MM)
  6

 40
0.0
 41
0.0
 42
0.0
 43
0.0
 44
841.0
 45
594.0
 46
0.0
 47
0.0
 48
0.0
 49
0.0
140
0.0
141
0.0
142
1.0
143
1.0
 70
1024
 72
1
 73
0
 74
0
  7

 75
0
147
1.0
148
0.0
149
0.0
100
AcDbLayout
  1
Model
 70
0
 71
0
 10
0.0
 20
0.0
 11
841.0
 21
594.0
 12
0.0
 22
0.0
 32
0.0
 14
0.0
 24
0.0
 34
0.0
 15
0.0
 25
0.0
 35
0.0
146
0.0
 13
0.0
 23
0.0
 33
0.0
 16
1.0
 26
0.0
 36
0.0
 17
0.0
 27
1.0
 37
0.0
 76
0
330
236
345
0
346
0
  0
LAYOUT
  5
2C8
102
{ACAD_REACTORS
330
1A
102
}
100
AcDbPlotSettings
  1

  2
none_device
  4
ISO_A1_(594.00_x_841.00_MM)
  6

 40
0.0
 41
0.0
 42
0.0
 43
0.0
 44
841.0
 45
594.0
 46
0.0
 47
0.0
 48
0.0
 49
0.0
140
0.0
141
0.0
142
1.0
143
1.0
 70
0
 72
1
 73
0
 74
0
  7

 75
0
147
1.0
148
0.0
149
0.0
100
AcDbLayout
  1
Layout1
 70
0
 71
1
 10
0.0
 20
0.0
 11
841.0
 21
594.0
 12
0.0
 22
0.0
 32
0.0
 14
0.0
 24
0.0
 34
0.0
 15
0.0
 25
0.0
 35
0.0
146
0.0
 13
0.0
 23
0.0
 33
0.0
 16
1.0
 26
0.0
 36
0.0
 17
0.0
 27
1.0
 37
0.0
 76
0
330
237
345
0
346
0
  0
ENDSEC
  0
EOF
